hindi american horror story etrg doctor who 2018 ita 0 star trek discovery español ddr Chicago ita The flash Lia M big bang theory español the walking dead ETRG ita 2018 nfl daredevil The Big Bang Theory lucifer WINDOWS 10 evo NASCAR Big bang theory Ncis fear the walking dead Game Of Thrones dtone 2160p porn ufc ant man 1080p 2018 SUPERNATURAL Dtone High Castle s03e07 empire modern family star trek discovery etmovies SURVIVOR incredibles 2 the last ship 1080p YIFY formula "Lia M" better call saul wwe Avengers blindspot ARROW ethd Lethal weapon Z nation south park bbc vikings ıt 2017 office 2019 Venom criminal minds doctor who s11e03 fgt ettv shameless formula 1 greys anatomy the good doctor 
Warning! Do not Download Without a VPN!
Your IP Address is .   Location is
Download and surf securely, stream unlimited and protect your personal data!
We strongly recommend using SpyOFF VPN!
Become Anonymous with SpyOFF
ETTV Recommended TV Shows
Supergirl.S04E02.HDTV.x264-SVA[ettv] torrent
The.Last.Ship.S05E07.WEBRip.x264-TBS[ettv] torrent
The.Walking.Dead.S09E03.HDTV.x264-SVA[ettv] torrent
Charmed.2018.S01E02.WEB.h264-TBS[ettv] torrent

ETTV Recommended Xvid
No.Escape.Room.2018.HDRip.XViD-ETRG torrent
Tales.of.Frankenstein.2018.HDRip.XviD.AC3-EVO torrent
The.Dark.2018.HDRip.XviD.AC3-EVO torrent
Incredibles.2.2018.HDRip.XViD-ETRG torrent

ETTV Recommended HD
Malicious.2018.1080p.WEB-DL.H264.AC3-EVO[EtHD] torrent
The.Night.Come.For.Us.2018.Multi.1080p.NF.WebDL.AVC.DDP.5.1-DTOne torrent
Thunder.Road.2018.1080p.WEB-DL.H264.AC3-EVO[EtHD] torrent
Incredibles.2.2018.1080p.WEB-DL.DD5.1.H264-CMRG[EtHD] torrent

ETTV Recommended UHD
Constantine.City.of.Demons.2018.2160p.BluRay.x265.10bit.HDR.DTS-HD.MA.5.1-SWTYBLZ[EtHD] torrent
Your.Name.2016.2160p.UHD.BluRay.x265-VALiS[EtHD] torrent
Peter.Rabbit.2018.PLDUB.DUAL.2160p.UHD.BluRay.x265-FLAME[EtHD] torrent
Death.Wish.2018 BluRay 2160p DTS MA5 1 x265 10bit-CHD[EtHD] torrent

ETTV Recommended Cam
Bad Times at the El Royale 2018.HDCAM.XViD.AC3-ETRG torrent
Goosebumps 2 Haunted Halloween 2018 HDTS.x264.AC3-ETRG torrent
Halloween 2018.HDCAM.XViD.AC3-ETRG torrent
Night School 2018 HDTS XViD AC3-ETRG torrent

ETTV Recommended Foreign
The.Night.Comes.For.Us.2018.1080p.NF.WEB-DL.DD5.1.H264-CMRG[EtHD] torrent
Rangasthalam (2018) [TELUGU - 720p - WEB HDRip - x264 - DD 5.1 - ESub - 2GB] - MAZE torrent
The Avengers Trilogy (2012-2018) 1080p BluRay x264 Dual Audio [Hindi - English] DD5.1 - ESUB ~ Ranvijay torrent
Naa.Bangaaru.Talli.2013.1080p.NF.WebDL.AVC.DDP.5.1-DTOne torrent

Social


Download Torrent "Vermin (2018) Season 01 S01 (1080p WEB-DL x265 HEVC 10bit AAC 2.0 Qman) [UT..."

IMDB Details
Description:

N/A

Genre:

N/A

Download Torrent (Magnet)
Download Torrent (File)
Seeds: 82
Leechers: 24
Completed: 907 
Last Checked: 06-10-2018 16:08:55


Loading...
Details
Title:Vermin (2018) Season 01 S01 (1080p WEB-DL x265 HEVC 10bit AAC 2.0 Qman) [UT...
Description:







Media Information
General
Format                                   : Matroska
Format version                           : Version 4 / Version 2
File size                                : 92.3 MiB
Duration                                 : 7 min 47 s
Overall bit rate                         : 1 655 kb/s
Encoded date                             : UTC 2018-10-04 15:09:35
Writing application                      : mkvmerge v27.0.0 ('Metropolis') 64-bit
Writing library                          : libebml v1.3.6 + libmatroska v1.4.9

Video
ID                                       : 1
Format                                   : HEVC
Format/Info                              : High Efficiency Video Coding
Format profile                           : Main [email protected]@Main
Codec ID                                 : V_MPEGH/ISO/HEVC
Duration                                 : 7 min 47 s
Bit rate                                 : 1 401 kb/s
Width                                    : 1 920 pixels
Height                                   : 1 080 pixels
Display aspect ratio                     : 16:9
Frame rate mode                          : Constant
Frame rate                               : 25.000 FPS
Color space                              : YUV
Chroma subsampling                       : 4:2:0
Bit depth                                : 10 bits
Bits/(Pixel*Frame)                       : 0.027
Stream size                              : 78.1 MiB (85%)
Writing library                          : x265 2.8+68-fa57fa584898:[Windows][MSVC 1915][64 bit] 10bit
Encoding settings                        : cpuid=1111039 / frame-threads=4 / numa-pools=16 / wpp / no-pmode / no-pme / no-psnr / no-ssim / log-level=2 / input-csp=1 / input-res=1920x1080 / interlace=0 / total-frames=11690 / level-idc=0 / high-tier=1 / uhd-bd=0 / ref=3 / no-allow-non-conformance / no-repeat-headers / annexb / no-aud / no-hrd / info / hash=0 / no-temporal-layers / open-gop / min-keyint=25 / keyint=250 / gop-lookahead=0 / bframes=4 / b-adapt=2 / b-pyramid / bframe-bias=0 / rc-lookahead=20 / lookahead-slices=6 / scenecut=40 / radl=0 / no-intra-refresh / ctu=64 / min-cu-size=8 / no-rect / no-amp / max-tu-size=32 / tu-inter-depth=1 / tu-intra-depth=1 / limit-tu=0 / rdoq-level=1 / dynamic-rd=0.00 / no-ssim-rd / signhide / no-tskip / nr-intra=0 / nr-inter=0 / no-constrained-intra / no-strong-intra-smoothing / max-merge=2 / limit-refs=3 / no-limit-modes / me=3 / subme=2 / merange=57 / temporal-mvp / weightp / no-weightb / no-analyze-src-pics / deblock=-1:-1 / sao / no-sao-non-deblock / rd=3 / no-early-skip / rskip / no-fast-intra / no-tskip-fast / no-cu-lossless / no-b-intra / no-splitrd-skip / rdpenalty=0 / psy-rd=0.35 / psy-rdoq=0.00 / no-rd-refine / no-lossless / cbqpoffs=0 / crqpoffs=0 / rc=crf / crf=24.0 / qcomp=0.60 / qpstep=4 / stats-write=0 / stats-read=0 / ipratio=1.40 / pbratio=1.30 / aq-mode=3 / aq-strength=1.00 / cutree / zone-count=0 / no-strict-cbr / qg-size=32 / no-rc-grain / qpmax=69 / qpmin=0 / no-const-vbv / sar=0 / overscan=0 / videoformat=5 / range=0 / colorprim=2 / transfer=2 / colormatrix=2 / chromaloc=0 / display-window=0 / max-cll=0,0 / min-luma=0 / max-luma=1023 / log2-max-poc-lsb=8 / vui-timing-info / vui-hrd-info / slices=1 / no-opt-qp-pps / no-opt-ref-list-length-pps / no-multi-pass-opt-rps / scenecut-bias=0.05 / no-opt-cu-delta-qp / no-aq-motion / no-hdr / no-hdr-opt / no-dhdr10-opt / no-idr-recovery-sei / analysis-reuse-level=5 / scale-factor=0 / refine-intra=0 / refine-inter=0 / refine-mv=0 / no-limit-sao / ctu-info=0 / no-lowpass-dct / refine-mv-type=0 / copy-pic=1 / max-ausize-factor=1.0 / no-dynamic-refine / no-single-sei
Language                                 : French
Default                                  : Yes
Forced                                   : No

Audio #1
ID                                       : 2
Format                                   : AAC
Format/Info                              : Advanced Audio Codec
Format profile                           : LC
Codec ID                                 : A_AAC
Duration                                 : 7 min 47 s
Bit rate                                 : 126 kb/s
Channel(s)                               : 2 channels
Channel positions                        : Front: L R
Sampling rate                            : 44.1 kHz
Frame rate                               : 43.066 FPS (1024 spf)
Compression mode                         : Lossy
Stream size                              : 7.00 MiB (8%)
Language                                 : French
Default                                  : Yes
Forced                                   : No

Audio #2
ID                                       : 3
Format                                   : AAC
Format/Info                              : Advanced Audio Codec
Format profile                           : LC
Codec ID                                 : A_AAC
Duration                                 : 7 min 46 s
Bit rate                                 : 126 kb/s
Channel(s)                               : 2 channels
Channel positions                        : Front: L R
Sampling rate                            : 44.1 kHz
Frame rate                               : 43.066 FPS (1024 spf)
Compression mode                         : Lossy
Stream size                              : 6.99 MiB (8%)
Language                                 : English
Default                                  : No
Forced                                   : No

Subtitle #1
ID                                       : 4
Format                                   : S_TEXT/WEBVTT
Codec ID                                 : S_TEXT/WEBVTT
Duration                                 : 7 min 23 s
Bit rate                                 : 94 b/s
Count of elements                        : 140
Stream size                              : 5.10 KiB (0%)
Language                                 : French
Default                                  : Yes
Forced                                   : No

Subtitle #2
ID                                       : 5
Format                                   : S_TEXT/WEBVTT
Codec ID                                 : S_TEXT/WEBVTT
Duration                                 : 7 min 1 s
Bit rate                                 : 89 b/s
Count of elements                        : 135
Stream size                              : 4.60 KiB (0%)
Language                                 : English
Default                                  : No
Forced                                   : No

Source Information
Release: Unknown Source/NO-GROUP


UTR wrote:

Note From UTR
We have no issue with individuals posting or re-uploading our torrents on a platform we aren't on. However, if this is something you'd like to do, please do so in a 'as-is' format. We ask that you do not create a new torrent, include all descriptions you see above including the UTR logo, tags, notes and screenshots. If you'd like to become a permanent poster on a website we don't post to, feel free to get in contact with a UniTeam member.

If possible please donate: BTC 1QA5fum5AyXvWzdVCkQzUNvw3Ef15fHRaR


Category:TV > HEVC/x265
Lang:English  English
Total Size:834 MB
Info Hash:121133776e64d28db33d58f4af140ca1a7f86bb3
Added By:UTR
Date Added:06-10-2018 16:08:50

Files

File List: 
 File Size
Vermin.S01E01.1080p.WEB-DL.x265.10bit.AAC.2.0-Qman[UTR].mkv92 MB
Vermin.S01E02.1080p.WEB-DL.x265.10bit.AAC.2.0-Qman[UTR].mkv104 MB
Vermin.S01E03.1080p.WEB-DL.x265.10bit.AAC.2.0-Qman[UTR].mkv80 MB
Vermin.S01E04.1080p.WEB-DL.x265.10bit.AAC.2.0-Qman[UTR].mkv87 MB
Vermin.S01E05.1080p.WEB-DL.x265.10bit.AAC.2.0-Qman[UTR].mkv83 MB
Vermin.S01E06.1080p.WEB-DL.x265.10bit.AAC.2.0-Qman[UTR].mkv79 MB
Vermin.S01E07.1080p.WEB-DL.x265.10bit.AAC.2.0-Qman[UTR].mkv67 MB
Vermin.S01E08.1080p.WEB-DL.x265.10bit.AAC.2.0-Qman[UTR].mkv63 MB
Vermin.S01E09.1080p.WEB-DL.x265.10bit.AAC.2.0-Qman[UTR].mkv75 MB
Vermin.S01E10.1080p.WEB-DL.x265.10bit.AAC.2.0-Qman[UTR].mkv103 MB



Loading...
Comments

There are currently no comments. Be the first one to write something !

Disclaimer: None of the files shown here are actually hosted or transmitted by this server. The links are provided solely by this site's users. The site moderation is also a service provided by the site's users. The administrator of this site (ettv.tv) cannot be held responsible for what its users post, or any other actions of its users. You may not use this site to distribute or download any material when you do not have the legal rights to do so. It is your own responsibility to adhere to these terms.

Sitemap